Внутренняя империя / Inland Empire (2006) Blu-ray disc (custom) 1080p

 

Кино HD

бтр-80 9-08-2011, 17:51     
Внутренняя империя / Inland Empire (2006)  Blu-ray disc (custom) 1080p

Внутренняя империя / Inland Empire



Страна: США, Франция, Польша
Жанр: триллер, драма, детектив
Год выпуска: 2006
Продолжительность: 02:59:23
Перевод: Профессиональный (многоголосый закадровый) CP Digital
Перевод (2): Профессиональный (многоголосый закадровый) Kinomania
Перевод (3): Авторский (одноголосый закадровый) Сербин
Cубтитры: русские, английские
Оригинальная аудиодорожка: английский
Режиссер: Дэвид Линч / David Lynch
В ролях: Лора Дерн, Джереми Айронс, Джастин Теру, Каролина Грушка, Jan Hencz, Кшиштоф Майхжак, Грейс Забриски

Описание: История тайны... Тайны, сокрытой в мирах внутри миров... Плетующаяся вокруг женщины... Влюбленной женщины, попавшей в беду.

Доп. информация:
Диск пересобран, используемое програмное обеспечение: BD reauthor, IGEditor (DVDLogic), Sonic Scenarist, PS, Adobe Audition. Воспроизведение проверено на Arcsoft Total Media Player 3 Platinum, Scenarist QC
Русские субтитры включаются при выборе английской дорожки. Остальное управление субтитрами с пульта.
Английские субтитры только на неанглийскую речь.
К имеющимся на BD-диске дополнительным материалам (без перевода) добавлены материалы с двд (с переводом) : More Things That Happened, Quinoa, Lynch 2, Stories

Бонусы: Guardian interview at the national film theatre with David Lynch
A short interview in London
A conversation with David Kynch by Mike Figgis
A masterclass with David Lynch
Interview at the Cartier Foundation
Trailer
More things that happened
Quinoa
Lynch 2
Stories

Релиз от bluebird

Меню: Присутствует, англоязычное
Тип релиза: Blu-ray disc (custom) 1080p
Контейнер: BDMV
Видео: MPEG-4 AVC 21000 kbps 1080p / 23,976 fps / 16:9
Аудио: DTS-HD Master Audio English 5.1 / 48 kHz / 2813 kbps / 24-bit (DTS Core: 5.1 / 48 kHz / 768 kbps / 24-bit)
Аудио 2: Dolby Digital Audio Russian 5.1 / 48 kHz / 448 kbps MVO CP Digital
Аудио 3: Dolby Digital Audio Russian 5.1 / 48 kHz / 448 kbps MVO Kinomania
Аудио 4: Dolby Digital Audio Russian 5.1 / 48 kHz / 448 kbps VO Сербин
Формат субтитров: prerendered (Blu-ray/PGS/SUP)

[spoiler=BDInfo]Disc Title: Inland_Empire
Disc Size: 49 442 073 427 bytes
Protection: AACS
BD-Java: No
BDInfo: 0.5.6

Notes:

BDINFO HOME:
Cinema Squid
http://www.cinemasquid.com/blu-ray/tools/bdinfo

INCLUDES FORUMS REPORT FOR:
AVS Forum Blu-ray Audio and Video Specifications Thread
http://www.avsforum.com/avs-vb/showthread.php?t=1155731

********************
PLAYLIST: 00000.MPLS
********************


Код:
Total Video
Title Codec Length Movie Size Disc Size Bitrate Bitrate Main Audio Track Secondary Audio Track
----- ------ ------- -------------- -------------- ------- ------- ------------------ ---------------------
00000.MPLS AVC 2:59:43 35 751 164 352 49 442 073 427 26,52 21,00 DTS-HD Master 5.1 2813Kbps (48kHz/24-bit)
Код:
DISC INFO:

Disc Title: Inland_Empire
Disc Size: 49 442 073 427 bytes
Protection: AACS
BD-Java: No
BDInfo: 0.5.6

PLAYLIST REPORT:

Name: 00000.MPLS
Length: 2:59:43 (h:m:s)
Size: 35 751 164 352 bytes
Total Bitrate: 26,52 Mbps

VIDEO:

Codec Bitrate Description
----- ------- -----------
MPEG-4 AVC Video 21000 kbps 1080p / 23,976 fps / 16:9 / High Profile 4.1

AUDIO:

Codec Language Bitrate Description
----- -------- ------- -----------
DTS-HD Master Audio English 2813 kbps 5.1 / 48 kHz / 2813 kbps / 24-bit (DTS Core: 5.1 / 48 kHz / 768 kbps / 24-bit)
Dolby Digital Audio Russian 448 kbps 5.1 / 48 kHz / 448 kbps / DN -4dB
Dolby Digital Audio Russian 448 kbps 5.1 / 48 kHz / 448 kbps / DN -4dB
Dolby Digital Audio Russian 448 kbps 5.1 / 48 kHz / 448 kbps / DN -4dB

SUBTITLES:

Codec Language Bitrate Description
----- -------- ------- -----------
Presentation Graphics English 1,886 kbps
Presentation Graphics Russian 10,456 kbps

FILES:

Name Time In Length Size Total Bitrate
---- ------- ------ ---- -------------
00000.M2TS 0:00:00.000 2:59:43.814 35 751 164 352 26 522

CHAPTERS:

Number Time In Length Avg Video Rate Max 1-Sec Rate Max 1-Sec Time Max 5-Sec Rate Max 5-Sec Time Max 10Sec Rate Max 10Sec Time Avg Frame Size Max Frame Size Max Frame Time
------ ------- ------ -------------- -------------- -------------- -------------- -------------- -------------- -------------- -------------- -------------- --------------
1 0:00:00.000 1:53:21.878 20 251 kbps 49 575 kbps 00:03:46.601 39 180 kbps 01:13:53.429 37 402 kbps 00:08:51.239 105 579 bytes 476 757 bytes 00:36:39.655
2 1:53:21.878 1:06:21.936 22 279 kbps 47 800 kbps 02:13:09.022 40 149 kbps 01:53:56.287 37 318 kbps 01:53:55.829 116 157 bytes 440 749 bytes 02:55:05.495

STREAM DIAGNOSTICS:

File PID Type Codec Language Seconds Bitrate Bytes Packets
---- --- ---- ----- -------- -------------- -------------- ------------- -----
00000.M2TS 4113 (0x1011) 0x1B AVC 10783,731 21 000 28 307 535 662 153 998 644
00000.M2TS 4352 (0x1100) 0x81 AC3 rus (Russian) 10783,731 448 603 914 752 3 370 060
00000.M2TS 4353 (0x1101) 0x86 DTS-HD MA eng (English) 10783,731 2 813 3 792 322 408 21 635 573
00000.M2TS 4354 (0x1102) 0x81 AC3 rus (Russian) 10783,731 448 603 895 040 3 369 950
00000.M2TS 4355 (0x1103) 0x81 AC3 rus (Russian) 10783,731 448 603 809 024 3 369 470
00000.M2TS 4608 (0x1200) 0x90 PGS eng (English) 10783,731 2 2 542 483 15 078
00000.M2TS 4609 (0x1201) 0x90 PGS rus (Russian) 10783,731 10 14 094 007 83 931


QUICK SUMMARY:

Disc Title: Inland_Empire
Disc Size: 49 442 073 427 bytes
Protection: AACS
BD-Java: No
Playlist: 00000.MPLS
Size: 35 751 164 352 bytes
Length: 2:59:43
Total Bitrate: 26,52 Mbps
Video: MPEG-4 AVC Video / 21000 kbps / 1080p / 23,976 fps / 16:9 / High Profile 4.1
Audio: English / DTS-HD Master Audio / 5.1 / 48 kHz / 2813 kbps / 24-bit (DTS Core: 5.1 / 48 kHz / 768 kbps / 24-bit)
Audio: Russian / Dolby Digital Audio / 5.1 / 48 kHz / 448 kbps / DN -4dB
Audio: Russian / Dolby Digital Audio / 5.1 / 48 kHz / 448 kbps / DN -4dB
Audio: Russian / Dolby Digital Audio / 5.1 / 48 kHz / 448 kbps / DN -4dB
Subtitle: English / 1,886 kbps
Subtitle: Russian / 10,456 kbps

********************
PLAYLIST: 00013.MPLS
********************


Код:
Total Video
Title Codec Length Movie Size Disc Size Bitrate Bitrate Main Audio Track Secondary Audio Track
----- ------ ------- -------------- -------------- ------- ------- ------------------ ---------------------
00013.MPLS AVC 1:15:01 1 647 148 992 49 442 073 427 2,93 2,50 DD AC3 2.0 192Kbps
Код:
DISC INFO:

Disc Title: Inland_Empire
Disc Size: 49 442 073 427 bytes
Protection: AACS
BD-Java: No
BDInfo: 0.5.6

PLAYLIST REPORT:

Name: 00013.MPLS
Length: 1:15:01 (h:m:s)
Size: 1 647 148 992 bytes
Total Bitrate: 2,93 Mbps

VIDEO:

Codec Bitrate Description
----- ------- -----------
MPEG-4 AVC Video 2499 kbps 480i / 29,970 fps / 16:9 / High Profile 3.0

AUDIO:

Codec Language Bitrate Description
----- -------- ------- -----------
Dolby Digital Audio English 192 kbps 2.0 / 48 kHz / 192 kbps / DN -4dB

FILES:

Name Time In Length Size Total Bitrate
---- ------- ------ ---- -------------
00017.M2TS 0:00:00.000 1:15:01.964 1 647 148 992 2 927

CHAPTERS:

Number Time In Length Avg Video Rate Max 1-Sec Rate Max 1-Sec Time Max 5-Sec Rate Max 5-Sec Time Max 10Sec Rate Max 10Sec Time Avg Frame Size Max Frame Size Max Frame Time
------ ------- ------ -------------- -------------- -------------- -------------- -------------- -------------- -------------- -------------- -------------- --------------
1 0:00:00.000 1:15:01.964 2 499 kbps 4 439 kbps 00:27:47.499 4 144 kbps 00:05:54.887 4 114 kbps 00:05:48.781 10 425 bytes 66 163 bytes 01:14:46.615

STREAM DIAGNOSTICS:

File PID Type Codec Language Seconds Bitrate Bytes Packets
---- --- ---- ----- -------- -------------- -------------- ------------- -----
00017.M2TS 4113 (0x1011) 0x1B AVC 4501,897 2 499 1 406 541 159 7 724 670
00017.M2TS 4352 (0x1100) 0x81 AC3 eng (English) 4501,897 192 108 046 080 703 425


QUICK SUMMARY:

Disc Title: Inland_Empire
Disc Size: 49 442 073 427 bytes
Protection: AACS
BD-Java: No
Playlist: 00013.MPLS
Size: 1 647 148 992 bytes
Length: 1:15:01
Total Bitrate: 2,93 Mbps
Video: MPEG-4 AVC Video / 2499 kbps / 480i / 29,970 fps / 16:9 / High Profile 3.0
Audio: English / Dolby Digital Audio / 2.0 / 48 kHz / 192 kbps / DN -4dB

********************
PLAYLIST: 00016.MPLS
********************


Код:
Total Video
Title Codec Length Movie Size Disc Size Bitrate Bitrate Main Audio Track Secondary Audio Track
----- ------ ------- -------------- -------------- ------- ------- ------------------ ---------------------
00016.MPLS MPEG-2 0:41:41 1 317 292 032 49 442 073 427 4,21 3,73 DD AC3 2.0 192Kbps
Код:
DISC INFO:

Disc Title: Inland_Empire
Disc Size: 49 442 073 427 bytes
Protection: AACS
BD-Java: No
BDInfo: 0.5.6

PLAYLIST REPORT:

Name: 00016.MPLS
Length: 0:41:41 (h:m:s)
Size: 1 317 292 032 bytes
Total Bitrate: 4,21 Mbps

VIDEO:

Codec Bitrate Description
----- ------- -----------
MPEG-2 Video 3733 kbps 480i / 29,970 fps / 16:9

AUDIO:

Codec Language Bitrate Description
----- -------- ------- -----------
Dolby Digital Audio English 192 kbps 2.0 / 48 kHz / 192 kbps / DN -4dB

FILES:

Name Time In Length Size Total Bitrate
---- ------- ------ ---- -------------
00020.M2TS 0:00:00.000 0:41:41.065 1 317 292 032 4 214

CHAPTERS:

Number Time In Length Avg Video Rate Max 1-Sec Rate Max 1-Sec Time Max 5-Sec Rate Max 5-Sec Time Max 10Sec Rate Max 10Sec Time Avg Frame Size Max Frame Size Max Frame Time
------ ------- ------ -------------- -------------- -------------- -------------- -------------- -------------- -------------- -------------- -------------- --------------
1 0:00:00.000 0:41:41.065 3 733 kbps 6 572 kbps 00:00:05.905 5 169 kbps 00:02:41.661 4 848 kbps 00:02:41.661 15 569 bytes 97 187 bytes 00:32:07.926

STREAM DIAGNOSTICS:

File PID Type Codec Language Seconds Bitrate Bytes Packets
---- --- ---- ----- -------- -------------- -------------- ------------- -----
00020.M2TS 4113 (0x1011) 0x02 MPEG-2 2500,932 3 733 1 166 995 958 6 386 292
00020.M2TS 4352 (0x1100) 0x81 AC3 eng (English) 2500,932 192 60 023 808 390 780


QUICK SUMMARY:

Disc Title: Inland_Empire
Disc Size: 49 442 073 427 bytes
Protection: AACS
BD-Java: No
Playlist: 00016.MPLS
Size: 1 317 292 032 bytes
Length: 0:41:41
Total Bitrate: 4,21 Mbps
Video: MPEG-2 Video / 3733 kbps / 480i / 29,970 fps / 16:9
Audio: English / Dolby Digital Audio / 2.0 / 48 kHz / 192 kbps / DN -4dB

********************
PLAYLIST: 00015.MPLS
********************


Код:
Total Video
Title Codec Length Movie Size Disc Size Bitrate Bitrate Main Audio Track Secondary Audio Track
----- ------ ------- -------------- -------------- ------- ------- ------------------ ---------------------
00015.MPLS MPEG-2 0:30:14 1 612 044 288 49 442 073 427 7,11 6,51 DD AC3 2.0 192Kbps
Код:
DISC INFO:

Disc Title: Inland_Empire
Disc Size: 49 442 073 427 bytes
Protection: AACS
BD-Java: No
BDInfo: 0.5.6

PLAYLIST REPORT:

Name: 00015.MPLS
Length: 0:30:14 (h:m:s)
Size: 1 612 044 288 bytes
Total Bitrate: 7,11 Mbps

VIDEO:

Codec Bitrate Description
----- ------- -----------
MPEG-2 Video 6508 kbps 480i / 29,970 fps / 16:9

AUDIO:

Codec Language Bitrate Description
----- -------- ------- -----------
Dolby Digital Audio English 192 kbps 2.0 / 48 kHz / 192 kbps / DN -4dB

FILES:

Name Time In Length Size Total Bitrate
---- ------- ------ ---- -------------
00019.M2TS 0:00:00.000 0:30:14.145 1 612 044 288 7 109

CHAPTERS:

Number Time In Length Avg Video Rate Max 1-Sec Rate Max 1-Sec Time Max 5-Sec Rate Max 5-Sec Time Max 10Sec Rate Max 10Sec Time Avg Frame Size Max Frame Size Max Frame Time
------ ------- ------ -------------- -------------- -------------- -------------- -------------- -------------- -------------- -------------- -------------- --------------
1 0:00:00.000 0:30:14.145 6 508 kbps 8 144 kbps 00:09:28.768 7 529 kbps 00:09:20.760 7 467 kbps 00:09:19.725 27 143 bytes 156 246 bytes 00:05:16.316

STREAM DIAGNOSTICS:

File PID Type Codec Language Seconds Bitrate Bytes Packets
---- --- ---- ----- -------- -------------- -------------- ------------- -----
00019.M2TS 4113 (0x1011) 0x02 MPEG-2 1814,046 6 508 1 475 748 081 8 051 810
00019.M2TS 4352 (0x1100) 0x81 AC3 eng (English) 1814,046 192 43 538 688 283 455


QUICK SUMMARY:

Disc Title: Inland_Empire
Disc Size: 49 442 073 427 bytes
Protection: AACS
BD-Java: No
Playlist: 00015.MPLS
Size: 1 612 044 288 bytes
Length: 0:30:14
Total Bitrate: 7,11 Mbps
Video: MPEG-2 Video / 6508 kbps / 480i / 29,970 fps / 16:9
Audio: English / Dolby Digital Audio / 2.0 / 48 kHz / 192 kbps / DN -4dB

********************
PLAYLIST: 00005.MPLS
********************


Код:
Total Video
Title Codec Length Movie Size Disc Size Bitrate Bitrate Main Audio Track Secondary Audio Track
----- ------ ------- -------------- -------------- ------- ------- ------------------ ---------------------
00005.MPLS AVC 0:26:13 2 431 752 192 49 442 073 427 12,36 10,00 LPCM 2.0 1536Kbps (48kHz/16-bit)
Код:
DISC INFO:

Disc Title: Inland_Empire
Disc Size: 49 442 073 427 bytes
Protection: AACS
BD-Java: No
BDInfo: 0.5.6

PLAYLIST REPORT:

Name: 00005.MPLS
Length: 0:26:13 (h:m:s)
Size: 2 431 752 192 bytes
Total Bitrate: 12,36 Mbps

VIDEO:

Codec Bitrate Description
----- ------- -----------
MPEG-4 AVC Video 10001 kbps 1080i / 25 fps / 16:9 / High Profile 4.1

AUDIO:

Codec Language Bitrate Description
----- -------- ------- -----------
LPCM Audio English 1536 kbps 2.0 / 48 kHz / 1536 kbps / 16-bit

SUBTITLES:

Codec Language Bitrate Description
----- -------- ------- -----------
Presentation Graphics English 9,163 kbps

FILES:

Name Time In Length Size Total Bitrate
---- ------- ------ ---- -------------
00005.M2TS 0:00:00.000 0:26:13.600 2 431 752 192 12 363

CHAPTERS:

Number Time In Length Avg Video Rate Max 1-Sec Rate Max 1-Sec Time Max 5-Sec Rate Max 5-Sec Time Max 10Sec Rate Max 10Sec Time Avg Frame Size Max Frame Size Max Frame Time
------ ------- ------ -------------- -------------- -------------- -------------- -------------- -------------- -------------- -------------- -------------- --------------
1 0:00:00.000 0:26:13.600 10 001 kbps 25 571 kbps 00:08:34.160 22 251 kbps 00:08:31.480 20 860 kbps 00:08:43.680 50 004 bytes 309 130 bytes 00:14:27.600

STREAM DIAGNOSTICS:

File PID Type Codec Language Seconds Bitrate Bytes Packets
---- --- ---- ----- -------- -------------- -------------- ------------- -----
00005.M2TS 4113 (0x1011) 0x1B AVC 1573,480 10 002 1 967 153 726 10 714 091
00005.M2TS 4352 (0x1100) 0x80 LPCM eng (English) 1573,480 1 543 303 390 080 1 888 320
00005.M2TS 4608 (0x1200) 0x90 PGS eng (English) 1573,480 9 1 802 348 10 224


QUICK SUMMARY:

Disc Title: Inland_Empire
Disc Size: 49 442 073 427 bytes
Protection: AACS
BD-Java: No
Playlist: 00005.MPLS
Size: 2 431 752 192 bytes
Length: 0:26:13
Total Bitrate: 12,36 Mbps
Video: MPEG-4 AVC Video / 10001 kbps / 1080i / 25 fps / 16:9 / High Profile 4.1
Audio: English / LPCM Audio / 2.0 / 48 kHz / 1536 kbps / 16-bit
Subtitle: English / 9,163 kbps

********************
PLAYLIST: 00014.MPLS
********************


Код:
Total Video
Title Codec Length Movie Size Disc Size Bitrate Bitrate Main Audio Track Secondary Audio Track
----- ------ ------- -------------- -------------- ------- ------- ------------------ ---------------------
00014.MPLS MPEG-2 0:20:08 631 203 840 49 442 073 427 4,18 3,70 DD AC3 2.0 192Kbps
Код:
DISC INFO:

Disc Title: Inland_Empire
Disc Size: 49 442 073 427 bytes
Protection: AACS
BD-Java: No
BDInfo: 0.5.6

PLAYLIST REPORT:

Name: 00014.MPLS
Length: 0:20:08 (h:m:s)
Size: 631 203 840 bytes
Total Bitrate: 4,18 Mbps

VIDEO:

Codec Bitrate Description
----- ------- -----------
MPEG-2 Video 3701 kbps 480i / 29,970 fps / 16:9

AUDIO:

Codec Language Bitrate Description
----- -------- ------- -----------
Dolby Digital Audio English 192 kbps 2.0 / 48 kHz / 192 kbps / DN -4dB

FILES:

Name Time In Length Size Total Bitrate
---- ------- ------ ---- -------------
00018.M2TS 0:00:00.000 0:20:08.006 631 203 840 4 180

CHAPTERS:

Number Time In Length Avg Video Rate Max 1-Sec Rate Max 1-Sec Time Max 5-Sec Rate Max 5-Sec Time Max 10Sec Rate Max 10Sec Time Avg Frame Size Max Frame Size Max Frame Time
------ ------- ------ -------------- -------------- -------------- -------------- -------------- -------------- -------------- -------------- -------------- --------------
1 0:00:00.000 0:20:08.006 3 701 kbps 7 754 kbps 00:05:12.512 7 207 kbps 00:17:12.531 5 835 kbps 00:16:50.542 15 435 bytes 116 264 bytes 00:17:17.536

STREAM DIAGNOSTICS:

File PID Type Codec Language Seconds Bitrate Bytes Packets
---- --- ---- ----- -------- -------------- -------------- ------------- -----
00018.M2TS 4113 (0x1011) 0x02 MPEG-2 1207,873 3 701 558 826 523 3 058 280
00018.M2TS 4352 (0x1100) 0x81 AC3 eng (English) 1207,873 192 28 990 464 188 740


QUICK SUMMARY:

Disc Title: Inland_Empire
Disc Size: 49 442 073 427 bytes
Protection: AACS
BD-Java: No
Playlist: 00014.MPLS
Size: 631 203 840 bytes
Length: 0:20:08
Total Bitrate: 4,18 Mbps
Video: MPEG-2 Video / 3701 kbps / 480i / 29,970 fps / 16:9
Audio: English / Dolby Digital Audio / 2.0 / 48 kHz / 192 kbps / DN -4dB

********************
PLAYLIST: 00002.MPLS
********************


Код:
Total Video
Title Codec Length Movie Size Disc Size Bitrate Bitrate Main Audio Track Secondary Audio Track
----- ------ ------- -------------- -------------- ------- ------- ------------------ ---------------------
00002.MPLS AVC 0:19:49 1 837 062 144 49 442 073 427 12,35 10,00 LPCM 2.0 1536Kbps (48kHz/16-bit)
Код:
DISC INFO:

Disc Title: Inland_Empire
Disc Size: 49 442 073 427 bytes
Protection: AACS
BD-Java: No
BDInfo: 0.5.6

PLAYLIST REPORT:

Name: 00002.MPLS
Length: 0:19:49 (h:m:s)
Size: 1 837 062 144 bytes
Total Bitrate: 12,35 Mbps

VIDEO:

Codec Bitrate Description
----- ------- -----------
MPEG-4 AVC Video 10002 kbps 1080i / 25 fps / 16:9 / High Profile 4.1

AUDIO:

Codec Language Bitrate Description
----- -------- ------- -----------
LPCM Audio English 1536 kbps 2.0 / 48 kHz / 1536 kbps / 16-bit

FILES:

Name Time In Length Size Total Bitrate
---- ------- ------ ---- -------------
00002.M2TS 0:00:00.000 0:19:49.600 1 837 062 144 12 354

CHAPTERS:

Number Time In Length Avg Video Rate Max 1-Sec Rate Max 1-Sec Time Max 5-Sec Rate Max 5-Sec Time Max 10Sec Rate Max 10Sec Time Avg Frame Size Max Frame Size Max Frame Time
------ ------- ------ -------------- -------------- -------------- -------------- -------------- -------------- -------------- -------------- -------------- --------------
1 0:00:00.000 0:19:49.600 10 002 kbps 32 672 kbps 00:00:49.519 28 703 kbps 00:00:50.720 28 003 kbps 00:00:49.519 50 010 bytes 347 853 bytes 00:14:14.079

STREAM DIAGNOSTICS:

File PID Type Codec Language Seconds Bitrate Bytes Packets
---- --- ---- ----- -------- -------------- -------------- ------------- -----
00002.M2TS 4113 (0x1011) 0x1B AVC 1189,480 10 003 1 487 308 657 8 100 658
00002.M2TS 4352 (0x1100) 0x80 LPCM eng (English) 1189,480 1 543 229 354 880 1 427 520


QUICK SUMMARY:

Disc Title: Inland_Empire
Disc Size: 49 442 073 427 bytes
Protection: AACS
BD-Java: No
Playlist: 00002.MPLS
Size: 1 837 062 144 bytes
Length: 0:19:49
Total Bitrate: 12,35 Mbps
Video: MPEG-4 AVC Video / 10002 kbps / 1080i / 25 fps / 16:9 / High Profile 4.1
Audio: English / LPCM Audio / 2.0 / 48 kHz / 1536 kbps / 16-bit

********************
PLAYLIST: 00004.MPLS
********************


Код:
Total Video
Title Codec Length Movie Size Disc Size Bitrate Bitrate Main Audio Track Secondary Audio Track
----- ------ ------- -------------- -------------- ------- ------- ------------------ ---------------------
00004.MPLS AVC 0:17:26 1 614 759 936 49 442 073 427 12,35 10,00 LPCM 2.0 1536Kbps (48kHz/16-bit)
Код:
DISC INFO:

Disc Title: Inland_Empire
Disc Size: 49 442 073 427 bytes
Protection: AACS
BD-Java: No
BDInfo: 0.5.6

PLAYLIST REPORT:

Name: 00004.MPLS
Length: 0:17:26 (h:m:s)
Size: 1 614 759 936 bytes
Total Bitrate: 12,35 Mbps

VIDEO:

Codec Bitrate Description
----- ------- -----------
MPEG-4 AVC Video 9998 kbps 1080i / 25 fps / 16:9 / High Profile 4.1

AUDIO:

Codec Language Bitrate Description
----- -------- ------- -----------
LPCM Audio English 1536 kbps 2.0 / 48 kHz / 1536 kbps / 16-bit

FILES:

Name Time In Length Size Total Bitrate
---- ------- ------ ---- -------------
00004.M2TS 0:00:00.000 0:17:26.000 1 614 759 936 12 350

CHAPTERS:

Number Time In Length Avg Video Rate Max 1-Sec Rate Max 1-Sec Time Max 5-Sec Rate Max 5-Sec Time Max 10Sec Rate Max 10Sec Time Avg Frame Size Max Frame Size Max Frame Time
------ ------- ------ -------------- -------------- -------------- -------------- -------------- -------------- -------------- -------------- -------------- --------------
1 0:00:00.000 0:17:26.000 9 998 kbps 15 191 kbps 00:00:16.279 13 916 kbps 00:00:13.279 13 520 kbps 00:00:12.080 49 991 bytes 239 816 bytes 00:00:36.480

STREAM DIAGNOSTICS:

File PID Type Codec Language Seconds Bitrate Bytes Packets
---- --- ---- ----- -------- -------------- -------------- ------------- -----
00004.M2TS 4113 (0x1011) 0x1B AVC 1045,920 9 999 1 307 260 339 7 119 963
00004.M2TS 4352 (0x1100) 0x80 LPCM eng (English) 1045,920 1 543 201 668 800 1 255 200


QUICK SUMMARY:

Disc Title: Inland_Empire
Disc Size: 49 442 073 427 bytes
Protection: AACS
BD-Java: No
Playlist: 00004.MPLS
Size: 1 614 759 936 bytes
Length: 0:17:26
Total Bitrate: 12,35 Mbps
Video: MPEG-4 AVC Video / 9998 kbps / 1080i / 25 fps / 16:9 / High Profile 4.1
Audio: English / LPCM Audio / 2.0 / 48 kHz / 1536 kbps / 16-bit

********************
PLAYLIST: 00006.MPLS
********************


Код:
Total Video
Title Codec Length Movie Size Disc Size Bitrate Bitrate Main Audio Track Secondary Audio Track
----- ------ ------- -------------- -------------- ------- ------- ------------------ ---------------------
00006.MPLS AVC 0:14:50 1 372 532 736 49 442 073 427 12,34 9,98 LPCM 2.0 1536Kbps (48kHz/16-bit)
Код:
DISC INFO:

Disc Title: Inland_Empire
Disc Size: 49 442 073 427 bytes
Protection: AACS
BD-Java: No
BDInfo: 0.5.6

PLAYLIST REPORT:

Name: 00006.MPLS
Length: 0:14:50 (h:m:s)
Size: 1 372 532 736 bytes
Total Bitrate: 12,34 Mbps

VIDEO:

Codec Bitrate Description
----- ------- -----------
MPEG-4 AVC Video 9977 kbps 1080i / 25 fps / 16:9 / High Profile 4.1

AUDIO:

Codec Language Bitrate Description
----- -------- ------- -----------
LPCM Audio English 1536 kbps 2.0 / 48 kHz / 1536 kbps / 16-bit

SUBTITLES:

Codec Language Bitrate Description
----- -------- ------- -----------
Presentation Graphics English 8,671 kbps

FILES:

Name Time In Length Size Total Bitrate
---- ------- ------ ---- -------------
00006.M2TS 0:00:00.000 0:14:50.000 1 372 532 736 12 337

CHAPTERS:

Number Time In Length Avg Video Rate Max 1-Sec Rate Max 1-Sec Time Max 5-Sec Rate Max 5-Sec Time Max 10Sec Rate Max 10Sec Time Avg Frame Size Max Frame Size Max Frame Time
------ ------- ------ -------------- -------------- -------------- -------------- -------------- -------------- -------------- -------------- -------------- --------------
1 0:00:00.000 0:14:50.000 9 977 kbps 22 944 kbps 00:08:28.359 18 652 kbps 00:08:26.160 17 089 kbps 00:08:25.160 49 884 bytes 378 558 bytes 00:11:05.960

STREAM DIAGNOSTICS:

File PID Type Codec Language Seconds Bitrate Bytes Packets
---- --- ---- ----- -------- -------------- -------------- ------------- -----
00006.M2TS 4113 (0x1011) 0x1B AVC 889,920 9 978 1 109 929 132 6 045 289
00006.M2TS 4352 (0x1100) 0x80 LPCM eng (English) 889,920 1 543 171 592 000 1 068 000
00006.M2TS 4608 (0x1200) 0x90 PGS eng (English) 889,920 9 964 598 5 481


QUICK SUMMARY:

Disc Title: Inland_Empire
Disc Size: 49 442 073 427 bytes
Protection: AACS
BD-Java: No
Playlist: 00006.MPLS
Size: 1 372 532 736 bytes
Length: 0:14:50
Total Bitrate: 12,34 Mbps
Video: MPEG-4 AVC Video / 9977 kbps / 1080i / 25 fps / 16:9 / High Profile 4.1
Audio: English / LPCM Audio / 2.0 / 48 kHz / 1536 kbps / 16-bit
Subtitle: English / 8,671 kbps

********************
PLAYLIST: 00003.MPLS
********************


Код:
Total Video
Title Codec Length Movie Size Disc Size Bitrate Bitrate Main Audio Track Secondary Audio Track
----- ------ ------- -------------- -------------- ------- ------- ------------------ ---------------------
00003.MPLS AVC 0:06:04 563 116 032 49 442 073 427 12,36 10,00 LPCM 2.0 1536Kbps (48kHz/16-bit)
Код:
DISC INFO:

Disc Title: Inland_Empire
Disc Size: 49 442 073 427 bytes
Protection: AACS
BD-Java: No
BDInfo: 0.5.6

PLAYLIST REPORT:

Name: 00003.MPLS
Length: 0:06:04 (h:m:s)
Size: 563 116 032 bytes
Total Bitrate: 12,36 Mbps

VIDEO:

Codec Bitrate Description
----- ------- -----------
MPEG-4 AVC Video 10004 kbps 1080i / 25 fps / 16:9 / High Profile 4.1

AUDIO:

Codec Language Bitrate Description
----- -------- ------- -----------
LPCM Audio English 1536 kbps 2.0 / 48 kHz / 1536 kbps / 16-bit

FILES:

Name Time In Length Size Total Bitrate
---- ------- ------ ---- -------------
00003.M2TS 0:00:00.000 0:06:04.600 563 116 032 12 356

CHAPTERS:

Number Time In Length Avg Video Rate Max 1-Sec Rate Max 1-Sec Time Max 5-Sec Rate Max 5-Sec Time Max 10Sec Rate Max 10Sec Time Avg Frame Size Max Frame Size Max Frame Time
------ ------- ------ -------------- -------------- -------------- -------------- -------------- -------------- -------------- ---


Загрузил: бтр-80 (9 августа 2011 09:51) |
Управление: [обновить]
Взяли: 835 | Размер: 46.05 Gb | Последняя активность: 25 января 2020 23:30
Раздают: 0 Качают: 0 Скачали: 99
 Мультитрекер 
Раздают: 0 Качают: 0 Скачали: 0
Список файлов


Категории: 2006, Драма, детектив
Рейтинг:
- Комментариев: 2 Просмотров: 8855

Перейти на главную страницу
 
function69 - 22 марта 2011 18:19 --
 
весит фильм тоже нормально
Комментариев: 0       
 
mavriciy - 22 марта 2011 15:34 --
 
Очень жду рип 1080.Описание на другом сайте просто порвало... bully
ИНТЕРЕСНОСТИ

• Фильм снимался на протяжении двух лет в обстановке строгой секретности в Польше (город Лодзь) с местными актёрами, а затем съёмочная группа переехала в Лос-Анджелес, где доснимала оставшиеся сцены.
• «Внутренняя империя» целиком снята на цифровую камеру. По окончании съёмок Дэвид Линч сказал, что впредь всегда будет работать только с цифровой видеокамерой.
• В фильме появляются три человека, одетых в большие кроличьи костюмы: два из них сидят на диване, третий гладит бельё. Кроликов озвучивают Наоми Уоттс, Лора Хэрринг и Скотт Коффи. Все трое актёров уже играли у Линча в фильме «Малхолланд Драйв», а кроме того, Скотт Коффи снял для Уоттс экспериментальный фильм «Элли Паркер».
• Песню «Ghost of love» в фильме исполняет сам Линч.
• Во время монтажа картины Дэвид разошелся со своей супругой Мэри Суини.
• Часть материала в фильме показана в черно-белом цвете.
• Название фильма возникло совершенно случайно. Однажды в разговоре с режиссером Дэвидом Линчем актриса Лора Дерн упомянула, что ее муж родом из Внутренней Империи - так называется область к востоку от округа Лос-Анджелес, включая Риверсайд и округ Сан-Бернадино. Впоследствии Линч признавался, что после этого он перестал слушать то, что говорила Лора, потому что был совершенно зачарован звучанием слов «Внутренняя Империя». В конце концов Дэвид Линч решил назвать так свой новый фильм. Когда режиссера спрашивали, почему он выбрал такое название, он отвечал: «Потому что мне нравится слово «внутренний». И мне нравится слово «империя».
Комментариев: 0       
Информация
Посетители, находящиеся в группе Гости, не могут оставлять комментарии к данной публикации.